Достать ножи: Стеклянная луковица

MVO

Добыча

Дубляж

Уэнсдэй

1 сезон

Тор

Дубляж

13 клиническая

1 сезон

Жестокая ночь

MVO

Одни из нас

1 сезон

Deluxe

pack

Рекомендуем

30

Пиратка

ВАЖНО

ВАЖНО

Ghostwire

Пиратка

jed

RePack

nioh2

RePack

RDR2

RePack

NEED FOR SPEED™ PAYBACK

RePack

скачать торрент

Кинопоиск HD

Острые козырьки 6 сезон

6 сезон

FAR CRY 6

RePack

скачать торрент

Лицензия

скачать торрент

MVO

1

1 сезон

скачать торрент

1 сезон

скачать торрент

Лицензия

  

Одни из нас / The Last of Us / Сезон: 1 / Серии: 1-2 из 9 (Али Аббаси, Джереми Уэбб, Нил Дракманн) [2023, Ужасы, фантастика, боевик, драма, WEB-DLRip-AVC] 2xMVO [Dubbing-Pro, HDRezka]

Одни из нас через торрент by4n.vidak.icu

Раздают: 7 [ 48 KB/s ] Качают: 4 [ 0 KB/s ]
Размер: 2.88 GB | Добавлен: 6 д. назад | Торрент скачан:49 раз
Смотреть онлайн | Скачать | Поддержите нас   

16-01-2023 08:19 Одни из нас Скачать торрент  

Одни из нас
The Last of Us

Год выпуска: 2023
Страна: Канада, США
Выпущено: HBO, Naughty Dog, PlayStation Productions, Sony Pictures Television, Word Games
Жанр: Ужасы, фантастика, боевик, драма
Продолжительность: ~ 01:20:00 серия
Перевод:
Профессиональный (многоголосый) | студия "Dubbing-Pro" совместно с "Deluxe Media"
Профессиональный (многоголосый) | HDRezka
Субтитры: Русские (Forced)

Режиссер: Али Аббаси, Джереми Уэбб, Нил Дракманн

rating

В ролях: Педро Паскаль, Белла Рэмси, Гэбриел Луна, Ник Офферман, Кон О’Нилл, Мерл Дэндридж, Джеффри Пирс, Анна Торв, Мюррэй Бартлетт, Марли Грэйс Бекер, Мелани Лински, Эшли Джонсон, Джанни Калькетти, Трой Бэйкер, Сторм Рейд

Описание: Действие происходит в постапокалиптическом будущем на территории бывших Соединенных штатов, спустя двадцать лет после глобальной пандемии, вызванной опасно мутировавшим вирусом. По сюжету главным героям - девочке-подростку Элли и опытному контрабандисту Джоэлу, который получил заказ сопроводить её, предстоит пересечь разрушенную Америку, чтобы добраться до безопасной зоны и спасти свои жизни. На этом непростом пути они неоднократно сталкиваются с массой препятствий, опасностей и противников.

Качество: WEB-DLRip-AVC
Формат: MKV

Видео: AVC, 1024x576 (16:9), 1800 kbps (0.127 b/px), 23,976 fps
Аудио: AC3, 384 kbps (CBR), 48.0 KHz (16 bits), 6 ch, Russian |Dubbing-Pro
Аудио: AC3, 448 kbps (CBR), 48.0 KHz (16 bits), 6 ch, Russian |HDRezka
Аудио: AC3, 448 kbps (CBR), 48.0 KHz (16 bits), 6 ch, Russian |HDRezka 18+
скриншот  скриншот  скриншот  скриншот  

Общее
Уникальный идентификатор : 174037724590667274604102245197818130162 (0x82EE724F694348AB6BD6E86E9A206EF2)
Полное имя : D:\фильмы и сериалы\The.Last.of.Us.S01E01.WEB-DLRip-AVC.TR.mkv
Формат : Matroska
Версия формата : Version 4
Размер файла : 1,74 Гбайт
Продолжительность : 1 ч. 20 м.
Общий поток : 3 081 Кбит/сек
Дата кодирования : UTC 2023-01-17 05:47:30
Программа кодирования : mkvmerge v35.0.0 ('All The Love In The World') 64-bit
Библиотека кодирования : libebml v1.3.9 + libmatroska v1.5.2

Видео
Идентификатор : 1
Формат : AVC
Формат/Информация : Advanced Video Codec
Профиль формата : [email protected]
Настройки формата : CABAC / 9 Ref Frames
Параметр CABAC формата : Да
Параметр RefFrames формата : 9 кадров
Идентификатор кодека : V_MPEG4/ISO/AVC
Продолжительность : 1 ч. 20 м.
Битрейт : 1 800 Кбит/сек
Ширина : 1 024 пикселя
Высота : 576 пикселей
Соотношение сторон : 16:9
Режим частоты кадров : Постоянный
Частота кадров : 23,976 (24000/1001) кадра/сек
Цветовое пространство : YUV
Субдискретизация насыщенности : 4:2:0
Битовая глубина : 8 бит
Тип развёртки : Прогрессивная
Бит/(Пиксели*Кадры) : 0.127
Размер потока : 1,02 Гбайт (58%)
Заголовок : TRIAX2009
Библиотека кодирования : x264 core 146 r2538 121396c
Настройки программы : cabac=1 / ref=9 / deblock=1:-2:-1 / analyse=0x3:0x113 / me=umh / subme=10 / psy=1 / psy_rd=1.00:0.15 / mixed_ref=1 / me_range=32 / chroma_me=1 / trellis=2 / 8x8dct=1 / cqm=0 / deadzone=21,11 / fast_pskip=0 / chroma_qp_offset=-3 / threads=30 / lookahead_threads=4 / sliced_threads=0 / nr=0 / decimate=1 / interlaced=0 / bluray_compat=0 / constrained_intra=0 / bframes=8 / b_pyramid=2 / b_adapt=2 / b_bias=0 / direct=3 / weightb=1 / open_gop=0 / weightp=2 / keyint=240 / keyint_min=23 / scenecut=40 / intra_refresh=0 / rc_lookahead=40 / rc=2pass / mbtree=1 / bitrate=1800 / ratetol=1.0 / qcomp=0.60 / qpmin=0 / qpmax=69 / qpstep=4 / cplxblur=20.0 / qblur=0.5 / vbv_maxrate=14000 / vbv_bufsize=14000 / nal_hrd=none / filler=0 / ip_ratio=1.40 / aq=1:1.00
Default : Да
Forced : Нет

Аудио #1
Идентификатор : 2
Формат : AC-3
Формат/Информация : Audio Coding 3
Коммерческое название : Dolby Digital
Идентификатор кодека : A_AC3
Продолжительность : 1 ч. 20 м.
Вид битрейта : Постоянный
Битрейт : 384 Кбит/сек
Каналы : 6 каналов
Channel layout : L R C LFE Ls Rs
Частота : 48,0 КГц
Частота кадров : 31,250 кадров/сек (1536 SPF)
Метод сжатия : С потерями
Размер потока : 222 Мбайт (12%)
Заголовок : MVO-Dubbing-Pro
Язык : Russian
Service kind : Complete Main
Default : Да
Forced : Нет

Аудио #2
Идентификатор : 3
Формат : AC-3
Формат/Информация : Audio Coding 3
Коммерческое название : Dolby Digital
Идентификатор кодека : A_AC3
Продолжительность : 1 ч. 20 м.
Вид битрейта : Постоянный
Битрейт : 448 Кбит/сек
Каналы : 6 каналов
Channel layout : L R C LFE Ls Rs
Частота : 48,0 КГц
Частота кадров : 31,250 кадров/сек (1536 SPF)
Метод сжатия : С потерями
Размер потока : 259 Мбайт (15%)
Заголовок : MVO-HDRezka
Язык : Russian
Service kind : Complete Main
Default : Нет
Forced : Нет

Аудио #3
Идентификатор : 4
Формат : AC-3
Формат/Информация : Audio Coding 3
Коммерческое название : Dolby Digital
Идентификатор кодека : A_AC3
Продолжительность : 1 ч. 20 м.
Вид битрейта : Постоянный
Битрейт : 448 Кбит/сек
Каналы : 6 каналов
Channel layout : L R C LFE Ls Rs
Частота : 48,0 КГц
Частота кадров : 31,250 кадров/сек (1536 SPF)
Метод сжатия : С потерями
Размер потока : 259 Мбайт (15%)
Заголовок : MVO-HDRezka 18+
Язык : Russian
Service kind : Complete Main
Default : Нет
Forced : Нет

Текст
Идентификатор : 5
Формат : UTF-8
Идентификатор кодека : S_TEXT/UTF8
Идентификатор кодека/Информация : UTF-8 Plain Text
Продолжительность : 1 ч. 14 м.
Битрейт : 2 бит/сек
Частота кадров : 0,006 кадр/сек
Count of elements : 29
Размер потока : 1,42 Кбайт (0%)
Заголовок : fors
Язык : Russian
Default : Да
Forced : Нет

Когда раздача ведётся путём добавления новых серий, при каждом добавлении создётся новый торрент. Чтобы начать докачку новой серии, пользователям необходимо сделать следующее:
(1) остановить скачивание,
(2) удалить старый торрент у себя из клиента (старые серии удалять не надо),
(3) скачать новый торрент и запустить его у себя в клиенте вместо старого, при этом указать клиенту путь в старую папку, куда и должно происходить скачивание новых серий.
Ваш клиент при этом должен произвести хеширование (проверку) старой папки (если не производит сам - помогите ему сделать это), и будет докачивать только те серии, которых у вас ещё нет. Старые серии при этом не удаляются, а продолжают раздаваться!
Eсли вы уже удалили старые серии, то предотвратить повторную закачку старых серий можно, отжав галочку в соответсвующих местах при запуске нового торрента. По возможности, желательно не удалять старые серии как можно дольше, чтобы релизёр не столько продолжал раздавать старые серии, а смог сконцентрироваться на новых.




Скачать Одни из нас через торрент https://i1-imageban-ru.translate.goog/out/2023/01/16/2c13e16ffd9265da82d4067dcca4e645.jpg Скачать, смотреть онлайн Одни из нас бесплантно в хорошем качестве Описание: Действие происходит в постапокалиптическом будущем на территории бывших Соединенных штатов, спустя двадцать лет после глобальной ... 10 10 26
Info! Золотая раздача, скачанное не засчитывается.
Торрент: Зарегистрирован [2023-01-24 18:36] · скачан: 49 раз
Статус: √ проверено
Размер: 2.88 GB
Как cкачать? Как скачать Одни из нас через торрент | UTorrent

% Раздел Тема Автор DL S | L
Зарубежные сериалы [ 14.48 GB ] Одни из нас / The Last of Us / Сезон: 1 / Серии: 1-3 из 9 | MVO | 1080p bober100 Скачать
17 | 86
Зарубежные сериалы [ 28.62 GB ] Одни из нас / The Last of Us / Сезон: 1 / Серии: 1-3 из 9 | MVO | 2160p bober100 Скачать
5 | 39
Зарубежные сериалы [ 8.92 GB ] Одни из нас / The Last of Us / Сезон: 1 / Серии: 1-2 из 9 | Дубляж | 1080p bober100 Скачать
8 | 7
* Оформление раздач (Наши, Зарубежные Сериалы) [ 17.7 GB ] Одни из нас / The Last of Us / Сезон: 1 / Серии: 1-2 из 9 | MVO | 2160p laniko Скачать
3 | 1
Зарубежные сериалы [ 6.19 GB ] Одни из нас / The Last of Us / Сезон: 1 / Серии: 1 из 9 | TVShows | 1080p bober100 Скачать
11 | 0
Зарубежные сериалы [ 1000 MB ] Одни из нас / The Last of Us / Сезон: 1 / Серии: 1 из 9 | Дубляж | DLRip bober100 Скачать
4 | 0
Зарубежные сериалы [ 1.61 GB ] Одни из нас / The Last of Us / Сезон: 1 / Серии: 1-2 из 9 | HDRezka Studio | DLRip bober100 Скачать
4 | 0



Последний раз редактировалось: bober100 (2023-01-24 18:36), всего редактировалось 4 раз(а)

28-11-2019 20:33  


Отключить вcю реклaмy на сайте, в т.ч. и в плеере онлайн просмотра!

16-01-2023 12:58 Одни из нас Скачать торрент  

Странно. На 15 секунде воспроизведение останавливается. Пробовал на разных плеерах и устройствах.



16-01-2023 17:04 Одни из нас Скачать торрент  

все работет



17-01-2023 06:19 Одни из нас Скачать торрент  

lunohod29 писал(а):

Странно. На 15 секунде воспроизведение останавливается. Пробовал на разных плеерах и устройствах.

и не говори! это тебе еще повезло, что все так обошлось легко. у меня на 30-й секунде плеер свалил делать себе чашечку кофе, а все устройства потребовали равноправие и соцпакет!)



17-01-2023 12:36 Одни из нас Скачать торрент  

tamburetko писал(а):

lunohod29 писал(а):

Странно. На 15 секунде воспроизведение останавливается. Пробовал на разных плеерах и устройствах.

и не говори! это тебе еще повезло, что все так обошлось легко. у меня на 30-й секунде плеер свалил делать себе чашечку кофе, а все устройства потребовали равноправие и соцпакет!)




17-01-2023 18:19 Одни из нас Скачать торрент  

tamburetko писал(а):

lunohod29 писал(а):

Странно. На 15 секунде воспроизведение останавливается. Пробовал на разных плеерах и устройствах.

и не говори! это тебе еще повезло, что все так обошлось легко. у меня на 30-й секунде плеер свалил делать себе чашечку кофе, а все устройства потребовали равноправие и соцпакет!)

ты сделал мой день



    Дорогой пользователь! Огромная просьба, поблагодарите релизера, оцените раздачу и оставьте свои комментарий, если Вы скачали Одни из нас через торрент бесплатно!!
    Комментировать посты могут только пользователи прошедшие не сложную регистрацию
    Показать сообщения:    


    Одни из нас через торрент
    Скачать бесплатно Одни из нас
    Одни из нас скачать торрент
    Одни из нас смотреть онлайн
    Cкачать фильм Одни из нас бесплатно
    Одни из нас скачать торрент в хорошем качестве
    Одни из нас смотреть онлайн бесплатно в хорошем качестве
    Вы не можете начинать темы
    Вы не можете отвечать на сообщения
    Вы не можете редактировать свои сообщения
    Вы не можете удалять свои сообщения
    Вы не можете голосовать в опросах
    Вы не можете прикреплять файлы к сообщениям
    Вы можете скачивать файлы
    Одни из нас / The Last of Us / Сезон: 1 / Серии: 1-2 из 9 [2023, Ужасы, фантастика, боевик, драма, WEB-DLRip-AVC] 2xMVO [Dubbing-Pro, HDRezka] смотреть онлайн, скачать торрент picoco.icu