Достать ножи: Стеклянная луковица

MVO

Добыча

Дубляж

Уэнсдэй

1 сезон

Тор

Дубляж

13 клиническая

1 сезон

Жестокая ночь

MVO

Одни из нас

1 сезон

Deluxe

pack

Рекомендуем

30

Пиратка

ВАЖНО

ВАЖНО

Ghostwire

Пиратка

jed

RePack

nioh2

RePack

RDR2

RePack

NEED FOR SPEED™ PAYBACK

RePack

скачать торрент

Кинопоиск HD

Острые козырьки 6 сезон

6 сезон

FAR CRY 6

RePack

скачать торрент

Лицензия

скачать торрент

MVO

1

1 сезон

скачать торрент

1 сезон

скачать торрент

Лицензия

  

Новый Comedy Club / Сезон: 18 / Серии: 1-22 из 27 [2022, ТВ-шоу, юмор, WEBRip 1080p]

Новый Comedy Club через торрент by4n.vidak.icu

Качают: 1 [ 0 KB/s ]
Размер: 31.88 GB | Добавлен: 18 ч. назад | Торрент скачан:3 раза
| Скачать | Поддержите нас   

23-01-2023 10:34 Новый Comedy Club Скачать торрент  

Новый Comedy Club Год выпуска: 2022
Страна: Россия
Выпущено: ТНТ-PREMIER
Жанр: ТВ-шоу, юмор
Продолжительность: ~ 00:49:00 серия
Перевод: Не требуется

В ролях: Гарик Харламов, Павел Воля, Тимур Батрутдинов, Демис Карибидис, Марина Кравец, Евгений Синяков, Андрей Бебуришвили, Иван Половинкин, Зураб Матуа, Дмитрий Сорокин (II), Андрей Аверин, Андрей Шелков, Андрей Минин, Дмитрий Вьюшкин, Константин Маласаев, Сергей Гореликов, Антон Иванов, Дмитрий Грачёв (III), Константин Бутусов, United Sexy Boys, Андрей Скороход, Сергей Драгни, Алексей Кривеня, Максим Конюхов

Описание: Главное юмористическое шоу российского телевидения возвращается после перерыва. Comedy Club уже почти два десятилетия остаётся на передовой юмора, всегда успевая за трендами и даже задавая их. В числе гостей шоу всегда можно увидеть самых медийных звёзд: от Ольги Бузовой до Евгения Понасенкова. А на сцену всегда выходят комики, которые за словом в карман не лезут. Душевный острослов Павел Воля, харизматичный лицедей Демис Карибидис, обворожительная красотка Марина Кравец и другие звёзды клуба комедий готовы удивлять зрителей в новом сезоне шоу. Миниатюры, стендап, музыкальные номера и не подпадающее ни под какие жанровые рамки творчество организованной музыкальной группы USB – на сцене Comedy будет жарко, как никогда.

Качество: WEBRip 1080p
Формат: MKV

Видео: MPEG-4 AVC, ~ 4500 Кбит/с, 1920x1072, 25 кадр/с
Аудио: 48.0 kHz, AC3 Dolby Digital, 2/0 (L,R) ch, ~ 192 kbps

Общее
Уникальный идентификатор : 209739942305443879199570811928358434230 (0x9DCA718BF81DC06580852426B87835B6)
Полное имя : C:\films\Comedy Club.s18.2022.WEB-DL 1080p.Files-x\01. Comedy Club.s18.2022.WEB-DL 1080p.Files-x.mkv
Формат : Matroska
Версия формата : Version 2
Размер файла : 1,52 Гбайт
Продолжительность : 46 м. 22 с.
Режим общего битрейта : Переменный
Общий поток : 4 682 Кбит/сек
Дата кодирования : UTC 2022-09-09 19:16:15
Программа кодирования : mkvmerge v7.8.0 ('River Man') 32bit built on Apr 3 2015 12:11:22
Библиотека кодирования : libebml v1.3.1 + libmatroska v1.4.2

Видео
Идентификатор : 1
Формат : AVC
Формат/Информация : Advanced Video Codec
Профиль формата : [email protected]
Настройки формата : CABAC / 2 Ref Frames
Параметр CABAC формата : Да
Параметр RefFrames формата : 2 кадра
Идентификатор кодека : V_MPEG4/ISO/AVC
Продолжительность : 46 м. 22 с.
Вид битрейта : Переменный
Битрейт : 4 397 Кбит/сек
Максимальный битрейт : 4 500 Кбит/сек
Ширина : 1 920 пикселей
Высота : 1 072 пикселя
Соотношение сторон : 16:9
Режим частоты кадров : Постоянный
Частота кадров : 25,000 кадров/сек
Цветовое пространство : YUV
Субдискретизация насыщенности : 4:2:0
Битовая глубина : 8 бит
Тип развёртки : Прогрессивная
Бит/(Пиксели*Кадры) : 0.085
Размер потока : 1,42 Гбайт (94%)
Default : Да
Forced : Нет
Цветовой диапазон : Limited
Основные цвета : BT.709
Характеристики трансфера : BT.709
Коэффициенты матрицы : BT.709

Аудио
Идентификатор : 2
Формат : AC-3
Формат/Информация : Audio Coding 3
Коммерческое название : Dolby Digital
Идентификатор кодека : A_AC3
Продолжительность : 46 м. 22 с.
Вид битрейта : Постоянный
Битрейт : 192 Кбит/сек
Каналы : 2 канала
Channel layout : L R
Частота : 44,1 КГц
Частота кадров : 28,711 кадров/сек (1536 SPF)
Метод сжатия : С потерями
Задержка видео : -120 мс.
Размер потока : 63,7 Мбайт (4%)
Service kind : Complete Main
Default : Да
Forced : Нет

Раздача ведётся путём добавления новых серий, при каждом добавлении создаётся новый торрент. Чтобы начать докачку новой серии, пользователям необходимо сделать следующее:
- Остановить скачивание.
- Удалить старый торрент у себя из клиента (старые серии удалять не надо).
- Скачать новый торрент и запустить его у себя в клиенте вместо старого, при этом указать клиенту путь в старую папку куда и должно происходить скачивание новых серий.
Ваш клиент при этом должен произвести хеширование (проверку) старой папки (если не производит сам - помогите ему сделать это), и будет докачивать только те серии которых у вас ещё нет. Старые серии при этом не удаляются, а продолжают раздаваться!



Скачать Новый Comedy Club через торрент https://i120.fastpic.org/big/2022/0909/ff/432befcabee2cb4f1b82cac8f4b377ff.jpg Скачать, смотреть онлайн Новый Comedy Club бесплантно в хорошем качестве Описание: Главное юмористическое шоу российского телевидения возвращается после перерыва. Comedy Club уже почти два десятилетия остаётся на ... 8.2 10 5
Торрент: Зарегистрирован [2023-01-30 05:55] · скачан: 3 раз
Статус: √ проверено
Размер: 31.88 GB
Как cкачать? Как скачать Новый Comedy Club через торрент | UTorrent

% Раздел Тема Автор DL S | L
Comedy Club - Комеди Клаб new [ 13.02 GB ] Новый Comedy Club / Сезон: 18 / Серии: 1-22 из 27 [2022, ТВ-шоу, юмор, SATRip | | SATRip bober100 Скачать
3 | 9

28-11-2019 20:33  


Отключить вcю реклaмy на сайте, в т.ч. и в плеере онлайн просмотра!

    Дорогой пользователь! Огромная просьба, поблагодарите релизера, оцените раздачу и оставьте свои комментарий, если Вы скачали Новый Comedy Club через торрент бесплатно!!
    Комментировать посты могут только пользователи прошедшие не сложную регистрацию
    Показать сообщения:    


    Новый Comedy Club через торрент
    Скачать бесплатно Новый Comedy Club
    Новый Comedy Club скачать торрент
    Новый Comedy Club смотреть онлайн
    Cкачать фильм Новый Comedy Club бесплатно
    Новый Comedy Club скачать торрент в хорошем качестве
    Новый Comedy Club смотреть онлайн бесплатно в хорошем качестве
    Вы не можете начинать темы
    Вы не можете отвечать на сообщения
    Вы не можете редактировать свои сообщения
    Вы не можете удалять свои сообщения
    Вы не можете голосовать в опросах
    Вы не можете прикреплять файлы к сообщениям
    Вы можете скачивать файлы
    Новый Comedy Club / Сезон: 18 / Серии: 1-22 из 27 [2022, ТВ-шоу, юмор, WEBRip 1080p] смотреть онлайн, скачать торрент picoco.icu