Достать ножи: Стеклянная луковица

MVO

Добыча

Дубляж

Уэнсдэй

1 сезон

Тор

Дубляж

13 клиническая

1 сезон

Жестокая ночь

MVO

Одни из нас

1 сезон

Deluxe

pack

Рекомендуем

30

Пиратка

ВАЖНО

ВАЖНО

Ghostwire

Пиратка

jed

RePack

nioh2

RePack

RDR2

RePack

NEED FOR SPEED™ PAYBACK

RePack

скачать торрент

Кинопоиск HD

Острые козырьки 6 сезон

6 сезон

FAR CRY 6

RePack

скачать торрент

Лицензия

скачать торрент

MVO

1

1 сезон

скачать торрент

1 сезон

скачать торрент

Лицензия

  

Одни из нас / The Last of Us / Сезон: 1 / Серии: 1-3 из 9 (Али Аббаси, Джереми Уэбб, Нил Дракманн) [2023, Ужасы, фантастика, боевик, драма, UHD WEB-DL-HEVC 2160p] MVO [Dubbing-Pro]

Одни из нас через торрент by4n.vidak.icu

Раздают: 4 [ 17 MB/s ] Качают: 28 [ 2 MB/s ]
Размер: 28.62 GB | Добавлен: 10 ч. назад | Торрент скачан:8 раз
Смотреть онлайн | Скачать | Поддержите нас   

23-01-2023 14:11 Одни из нас Скачать торрент  

Одни из нас | The Last of Us
«When you're lost in the darkness, look for the light»
Год выпуска: 2023
Страна: Канада, США
Выпущено: HBO, Naughty Dog, PlayStation Productions, Sony Pictures Television, Word Games
Жанр: Ужасы, фантастика, боевик, драма
Продолжительность: ~ 01:20:00 серия
Перевод: Профессиональный (многоголосый) | студия "Dubbing-Pro" совместно с "Deluxe Media"
Субтитры: Русские (Forced, Full |HBO|), английские (Full, SDH)

Режиссер: Али Аббаси, Джереми Уэбб, Нил Дракманн

rating

В ролях: Педро Паскаль, Белла Рэмси, Гэбриел Луна, Ник Офферман, Кон О’Нилл, Мерл Дэндридж, Джеффри Пирс, Анна Торв, Мюррэй Бартлетт, Марли Грэйс Бекер, Мелани Лински, Эшли Джонсон, Джанни Калькетти, Трой Бэйкер, Сторм Рейд

Описание: Действие происходит в постапокалиптическом будущем на территории бывших Соединенных штатов, спустя двадцать лет после глобальной пандемии, вызванной опасно мутировавшим вирусом. По сюжету главным героям - девочке-подростку Элли и опытному контрабандисту Джоэлу, который получил заказ сопроводить её, предстоит пересечь разрушенную Америку, чтобы добраться до безопасной зоны и спасти свои жизни. На этом непростом пути они неоднократно сталкиваются с массой препятствий, опасностей и противников.

Качество: UHD WEB-DL-HEVC 2160p
Формат: MKV

Видео: MPEG-H HEVC HDR, ~ 18 Mbps, 3840x2160, 23.976 fps, 10 bit
Аудио №1: AC3, 48 kHz, 6 ch, 384 kbps
Аудио №2: AC3, 48 kHz, 6 ch, 640 kbpss

Аудио №3: E-AC3 ATMOS, 48 kHz, 6 ch, 768 kbps
скриншот  скриншот  скриншот  скриншот  

Complete name : D:The_Last_of_Us_(s01)_Dubbing-Pro_2160pThe.Last.of.Us.2023.S01E01.When.Youre.Lost.in.the.Darkness.2160p.HMAX.WEB-DL.DDP5.1.HDR.x265-NTb_EniaHD.mkv
Format : Matroska
Format version : Version 4
File size : 11.1 GiB
Duration : 1 h 20 min
Overall bit rate : 19.6 Mb/s
Encoded date : UTC 2023-01-19 14:55:15
Writing application : mkvmerge v58.0.0 ('Supper's Ready') 64-bit
Writing library : libebml v1.4.2 + libmatroska v1.6.4

Video
ID : 1
Format : HEVC
Format/Info : High Efficiency Video Coding
Format profile : Main [email protected]@Main
HDR format : SMPTE ST 2086, HDR10 compatible
Codec ID : V_MPEGH/ISO/HEVC
Duration : 1 h 20 min
Bit rate : 17.8 Mb/s
Width : 3 840 pixels
Height : 2 160 pixels
Display aspect ratio : 16:9
Frame rate mode : Constant
Frame rate : 23.976 (24000/1001) FPS
Color space : YUV
Chroma subsampling : 4:2:0
Bit depth : 10 bits
Bits/(Pixel*Frame) : 0.089
Stream size : 10.0 GiB (91%)
Title : Release by EniaHD
Writing library : x265 3.4hy:[Linux][GCC 7.5.0][64 bit] 10bit
Encoding settings : cpuid=1111039 / frame-threads=1 / wpp / no-pmode / no-pme / no-psnr / no-ssim / log-level=2 / input-csp=1 / input-res=3840x2160 / interlace=0 / total-frames=0 / level-idc=0 / high-tier=1 / uhd-bd=0 / ref=4 / no-allow-non-conformance / repeat-headers / annexb / no-aud / no-hrd / info / hash=0 / no-temporal-layers / no-open-gop / min-keyint=96 / keyint=96 / gop-lookahead=0 / bframes=3 / b-adapt=2 / b-pyramid / bframe-bias=0 / rc-lookahead=25 / lookahead-slices=4 / scenecut=40 / hist-scenecut=0 / radl=0 / no-splice / no-intra-refresh / ctu=64 / min-cu-size=8 / rect / no-amp / max-tu-size=32 / tu-inter-depth=1 / tu-intra-depth=1 / limit-tu=0 / rdoq-level=2 / dynamic-rd=0.00 / no-ssim-rd / signhide / no-tskip / nr-intra=0 / nr-inter=0 / no-constrained-intra / strong-intra-smoothing / max-merge=3 / limit-refs=3 / limit-modes / me=3 / subme=3 / merange=57 / temporal-mvp / no-frame-dup / no-hme / weightp / no-weightb / no-analyze-src-pics / deblock=0:0 / sao / no-sao-non-deblock / rd=4 / selective-sao=4 / no-early-skip / rskip / no-fast-intra / no-tskip-fast / no-cu-lossless / no-b-intra / no-splitrd-skip / rdpenalty=0 / psy-rd=2.00 / psy-rdoq=1.00 / no-rd-refine / no-lossless / cbqpoffs=0 / crqpoffs=0 / rc=abr / bitrate=18000 / qcomp=0.60 / qpstep=4 / stats-write=0 / stats-read=2 / cplxblur=20.0 / qblur=0.5 / vbv-maxrate=24500 / vbv-bufsize=24500 / vbv-init=0.6 / vbv-end=0.6 / vbv-end-fr-adj=0.0 / ipratio=1.40 / pbratio=1.30 / aq-mode=2 / aq-strength=1.00 / cutree / zone-count=0 / no-strict-cbr / qg-size=32 / no-rc-grain / qpmax=69 / qpmin=0 / no-const-vbv / sar=0 / overscan=0 / videoformat=5 / range=0 / colorprim=9 / transfer=16 / colormatrix=9 / chromaloc=0 / display-window=0 / master-display=G(8500,39850)B(6550,2300)R(35400,14600)WP(15635,16450)L(10000000,1) / cll=501,235 / min-luma=0 / max-luma=1023 / log2-max-poc-lsb=8 / vui-timing-info / vui-hrd-info / no-concatenation / slices=1 / no-opt-qp-pps / no-opt-ref-list-length-pps / no-multi-pass-opt-rps / scenecut-bias=0.05 / hist-threshold=0.01 / no-opt-cu-delta-qp / no-aq-motion / hdr10 / no-hdr10-opt / no-dhdr10-opt / no-idr-recovery-sei / analysis-reuse-level=0 / analysis-save-reuse-level=0 / analysis-load-reuse-level=0 / scale-factor=0 / refine-intra=0 / refine-inter=0 / refine-mv=1 / refine-ctu-distortion=0 / no-limit-sao / ctu-info=0 / no-lowpass-dct / refine-analysis-type=0 / copy-pic=1 / max-ausize-factor=1.0 / no-dynamic-refine / no-single-sei / no-hevc-aq / no-svt / no-field / qp-adaptation-range=1.00 / no-scenecut-aware-qpconformance-window-offsets / right=0 / bottom=0 / decoder-max-rate=0
Default : Yes
Forced : No
Color range : Limited
Color primaries : BT.2020
Transfer characteristics : PQ
Matrix coefficients : BT.2020 non-constant
Mastering display color pri : BT.2020
Mastering display luminance : min: 0.0001 cd/m2, max: 1000 cd/m2
Maximum Content Light Level : 501 cd/m2
Maximum Frame-Average Light : 235 cd/m2

Audio #1
ID : 2
Format : AC-3
Format/Info : Audio Coding 3
Commercial name : Dolby Digital
Codec ID : A_AC3
Duration : 1 h 20 min
Bit rate mode : Constant
Bit rate : 384 kb/s
Channel(s) : 6 channels
Channel layout : L R C LFE Ls Rs
Sampling rate : 48.0 kHz
Frame rate : 31.250 FPS (1536 SPF)
Compression mode : Lossy
Stream size : 222 MiB (2%)
Title : Dubbing-Pro
Language : Russian
Service kind : Complete Main
Default : Yes
Forced : No

Audio #2
ID : 3
Format : AC-3
Format/Info : Audio Coding 3
Commercial name : Dolby Digital
Codec ID : A_AC3
Duration : 1 h 20 min
Bit rate mode : Constant
Bit rate : 640 kb/s
Channel(s) : 6 channels
Channel layout : L R C LFE Ls Rs
Sampling rate : 48.0 kHz
Frame rate : 31.250 FPS (1536 SPF)
Compression mode : Lossy
Stream size : 370 MiB (3%)
Language : English
Service kind : Complete Main
Default : No
Forced : No

Audio #3
ID : 4
Format : E-AC-3 JOC
Format/Info : Enhanced AC-3 with Joint Object Coding
Commercial name : Dolby Digital Plus with Dolby Atmos
Codec ID : A_EAC3
Duration : 1 h 20 min
Bit rate mode : Constant
Bit rate : 768 kb/s
Channel(s) : 6 channels
Channel layout : L R C LFE Ls Rs
Sampling rate : 48.0 kHz
Frame rate : 31.250 FPS (1536 SPF)
Compression mode : Lossy
Stream size : 444 MiB (4%)
Language : English
Service kind : Complete Main
Default : No
Forced : No
Complexity index : 16
Number of dynamic objects : 15
Bed channel count : 1 channel
Bed channel configuration : LFE

Text #1
ID : 5
Format : UTF-8
Codec ID : S_TEXT/UTF8
Codec ID/Info : UTF-8 Plain Text
Duration : 1 h 1 min
Bit rate : 0 b/s
Count of elements : 8
Stream size : 265 Bytes (0%)
Title : Forced
Language : Russian
Default : Yes
Forced : No

Text #2
ID : 6
Format : UTF-8
Codec ID : S_TEXT/UTF8
Codec ID/Info : UTF-8 Plain Text
Duration : 1 h 18 min
Bit rate : 70 b/s
Count of elements : 967
Stream size : 40.4 KiB (0%)
Title : Full |HBO|
Language : Russian
Default : No
Forced : No

Text #3
ID : 7
Format : UTF-8
Codec ID : S_TEXT/UTF8
Codec ID/Info : UTF-8 Plain Text
Duration : 1 h 18 min
Bit rate : 49 b/s
Count of elements : 982
Stream size : 28.8 KiB (0%)
Title : Full
Language : English
Default : No
Forced : No

Text #4
ID : 8
Format : UTF-8
Codec ID : S_TEXT/UTF8
Codec ID/Info : UTF-8 Plain Text
Duration : 1 h 20 min
Bit rate : 60 b/s
Count of elements : 1247
Stream size : 35.4 KiB (0%)
Title : SDH
Language : English
Default : No
Forced : No

Menu
00:00:00.000 : Chapter 1
00:03:20.200 : Intro
00:04:27.268 : Chapter 2
01:19:36.000 : Credits

Когда раздача ведётся путём добавления новых серий, при каждом добавлении создётся новый торрент. Чтобы начать докачку новой серии, пользователям необходимо сделать следующее:
(1) остановить скачивание,
(2) удалить старый торрент у себя из клиента (старые серии удалять не надо),
(3) скачать новый торрент и запустить его у себя в клиенте вместо старого, при этом указать клиенту путь в старую папку, куда и должно происходить скачивание новых серий.
Ваш клиент при этом должен произвести хеширование (проверку) старой папки (если не производит сам - помогите ему сделать это), и будет докачивать только те серии, которых у вас ещё нет. Старые серии при этом не удаляются, а продолжают раздаваться!
Eсли вы уже удалили старые серии, то предотвратить повторную закачку старых серий можно, отжав галочку в соответсвующих местах при запуске нового торрента. По возможности, желательно не удалять старые серии как можно дольше, чтобы релизёр не столько продолжал раздавать старые серии, а смог сконцентрироваться на новых.




Скачать Одни из нас через торрент https://i1-imageban-ru.translate.goog/out/2023/01/17/039663f876c03d5d83f576eab080ad78.png Скачать, смотреть онлайн Одни из нас бесплантно в хорошем качестве Описание: Действие происходит в постапокалиптическом будущем на территории бывших Соединенных штатов, спустя двадцать лет после глобальной ... 9.9 10 16
Info! Золотая раздача, скачанное не засчитывается.
Торрент: Зарегистрирован [2023-01-30 15:11] · скачан: 8 раз
Статус: √ проверено
Размер: 28.62 GB
Как cкачать? Как скачать Одни из нас через торрент | UTorrent

% Раздел Тема Автор DL S | L
Зарубежные сериалы [ 14.48 GB ] Одни из нас / The Last of Us / Сезон: 1 / Серии: 1-3 из 9 | MVO | 1080p bober100 Скачать
15 | 67
Зарубежные сериалы [ 8.92 GB ] Одни из нас / The Last of Us / Сезон: 1 / Серии: 1-2 из 9 | Дубляж | 1080p bober100 Скачать
7 | 7
* Оформление раздач (Наши, Зарубежные Сериалы) [ 17.7 GB ] Одни из нас / The Last of Us / Сезон: 1 / Серии: 1-2 из 9 | MVO | 2160p laniko Скачать
3 | 2
Зарубежные сериалы [ 6.19 GB ] Одни из нас / The Last of Us / Сезон: 1 / Серии: 1 из 9 | TVShows | 1080p bober100 Скачать
10 | 0
Зарубежные сериалы [ 1000 MB ] Одни из нас / The Last of Us / Сезон: 1 / Серии: 1 из 9 | Дубляж | DLRip bober100 Скачать
4 | 0
Зарубежные сериалы [ 2.88 GB ] Одни из нас / The Last of Us / Сезон: 1 / Серии: 1-2 из 9 | MVO | DLRip-AVC bober100 Скачать
6 | 3
Зарубежные сериалы [ 1.61 GB ] Одни из нас / The Last of Us / Сезон: 1 / Серии: 1-2 из 9 | HDRezka Studio | DLRip bober100 Скачать
2 | 0



Последний раз редактировалось: bober100 (2023-01-30 19:56), всего редактировалось 2 раз(а)

28-11-2019 20:33  


Отключить вcю реклaмy на сайте, в т.ч. и в плеере онлайн просмотра!

26-01-2023 05:04 Одни из нас Скачать торрент  

Жаль, что во 2й серии в начале не переводят на русский голоса, тк титры почему то не проигрываются на телеке..



30-01-2023 20:12 Одни из нас Скачать торрент  

Vad_IM писал(а):

Жаль, что во 2й серии в начале не переводят на русский голоса, тк титры почему то не проигрываются на телеке..

HDRezka перевод (вроде даже проф и без рекламы ток 5 сек в начале)
там первые 10 мин с переводом



31-01-2023 00:50 Одни из нас Скачать торрент  

уже эта педарастия, походу сериал закончился не успев начаться



    Дорогой пользователь! Огромная просьба, поблагодарите релизера, оцените раздачу и оставьте свои комментарий, если Вы скачали Одни из нас через торрент бесплатно!!
    Комментировать посты могут только пользователи прошедшие не сложную регистрацию
    Показать сообщения:    


    Одни из нас через торрент
    Скачать бесплатно Одни из нас
    Одни из нас скачать торрент
    Одни из нас смотреть онлайн
    Cкачать фильм Одни из нас бесплатно
    Одни из нас скачать торрент в хорошем качестве
    Одни из нас смотреть онлайн бесплатно в хорошем качестве
    Вы не можете начинать темы
    Вы не можете отвечать на сообщения
    Вы не можете редактировать свои сообщения
    Вы не можете удалять свои сообщения
    Вы не можете голосовать в опросах
    Вы не можете прикреплять файлы к сообщениям
    Вы можете скачивать файлы
    Одни из нас / The Last of Us / Сезон: 1 / Серии: 1-3 из 9 [2023, Ужасы, фантастика, боевик, драма, UHD WEB-DL-HEVC 2160p] MVO [Dubbing-Pro] смотреть онлайн, скачать торрент picoco.icu