Достать ножи: Стеклянная луковица

MVO

Добыча

Дубляж

Уэнсдэй

1 сезон

Тор

Дубляж

13 клиническая

1 сезон

Жестокая ночь

MVO

Одни из нас

1 сезон

Deluxe

pack

Рекомендуем

30

Пиратка

ВАЖНО

ВАЖНО

Ghostwire

Пиратка

jed

RePack

nioh2

RePack

RDR2

RePack

NEED FOR SPEED™ PAYBACK

RePack

скачать торрент

Кинопоиск HD

Острые козырьки 6 сезон

6 сезон

FAR CRY 6

RePack

скачать торрент

Лицензия

скачать торрент

MVO

1

1 сезон

скачать торрент

1 сезон

скачать торрент

Лицензия

  

Mystic Pieces / Загадочные Девочки (John Stagliano) [1989 г., Feature, Straight, Couples, All Sex, DVD9]

Mystic Pieces через торрент by4n.vidak.icu

Раздают: 1 [ 295 KB/s ] Качают: 2 [ 0 KB/s ]
Размер: 7.51 GB | Добавлен: 6 д. назад | Торрент скачан:24 раза
| Скачать | Поддержите нас   

24-01-2023 16:49 Mystic Pieces Скачать торрент  

Mystic Pieces / Загадочные Девочки
Год выпуска: 1989
Страна: США
Жанр: Feature, Straight, Couples, All Sex
Продолжительность: 02:15:30

Режиссер: John Stagliano

В ролях: Victoria Paris, Trinity Loren, Tori Welles, Cheri Taylor, Brandy Alexandre, Britt Morgan, John Stagliano

Описание: Ahhhh! It's an '80s porn video feature, the kind of movie I helped put out of business when I came up with the Buttman/gonzo idea! And it stars me with a mullet again! Fortunately, there's no dancing this time, but you get to see more of me acting.... Ahhhhh! Mystic Pieces also stars (in her first month in the business) Tori Wells, showing off why she was soon to become the top-selling Vivid girl. And there's Cheri Taylor wiping down a Ferrari in a tight miniskirt. That got people's attention at the time. While it's not up to today's standards of hard sex (and some of the dialogue seems laughable now), the women make this movie for me.
More than any adult feature I've seen yet, I love the way Stagliano establishes his sex scenes here. Cheri Taylor practically bursts through the screen in one scene as she sensuously, meticulously buffs Dee's sports car (remember Cool Hand Luke?). The director gives you a visual reason for wanting to see these dames plowed - a capsule lesson in sexvid film directing. Besides, there's threesomes, foursomes, fivesomes galore...everything about the feature is top notch - screenplay, acting, videography, pace, tension, and, of course, sex. - Gene Ross, Adult Video News, 1989

Качество: DVD9
Формат: DVD Video
Видео кодек: MPEG2
Аудио кодек: AC3
Видео: 720x480, MPEG 2, 6000 Кбит/сек
Аудио: Английский, AC3, 2 ch, 192 Кбит/сек
Видео
Идентификатор : 224 (0xE0)
Формат : MPEG Video
Версия формата : Version 2
Профиль формата : [email protected]
Настройки формата : BVOP
Параметр BVOP формата : Да
Параметр матрицы формата : По умолчанию
Параметр GOP формата : M=3, N=13
Структура изображения : Field
Продолжительность : 23 м. 27 с.
Вид битрейта : Переменный
Битрейт : 5789 Кбит/сек
Максимальный битрейт : 9500 Кбит/сек
Ширина : 720 пикселей
Высота : 480 пикселей
Соотношение сторон : 4:3
Частота кадров : 29,970 (30000/1001) кадров/сек
Стандарт вещания : NTSC
Цветовое пространство : YUV
Субдискретизация насыщенности : 4:2:0
Битовая глубина : 8 бит
Тип развёртки : Чересстрочная
Порядок развёртки : Верхнее поле первое
Метод сжатия : С потерями
Бит/(Пиксели*Кадры) : 0.559
Временной код первого кадра : 00:01:48;17
Оригинал временного кода : Group of pictures header
GOP, открыто/закрыто : Открыто
Размер потока : 971 Мбайт (95%)
Основные цвета : BT.601 NTSC
Характеристики трансфера : BT.601
Коэффициенты матрицы : BT.601

Аудио
Идентификатор : 189 (0xBD)-128 (0x80)
Формат : AC-3
Формат/Информация : Audio Coding 3
Коммерческое название : Dolby Digital
Режим смешивания : DVD-Video
Продолжительность : 23 м. 27 с.
Вид битрейта : Постоянный
Битрейт : 192 Кбит/сек
Каналы : 2 канала
ChannelLayout : L R
Частота : 48,0 КГц
Частота кадров : 31,250 кадров/сек (1536 SPF)
Метод сжатия : С потерями
Размер потока : 32,2 Мбайт (3%)
ServiceKind/String : Complete Main




pack Скачать Mystic Pieces через торрент https://i121.fastpic.org/big/2023/0124/02/4736e643217178fe69e3ea7377d4e702.jpg Скачать, смотреть онлайн Mystic Pieces бесплантно в хорошем качестве Описание: Ahhhh! It's an '80s porn video feature, the kind of movie I helped put out of business when I came up with the Buttman/gonzo ... 10 10 1
Info! Золотая раздача, скачанное не засчитывается.
Торрент: Зарегистрирован [2023-01-24 16:49] · скачан: 24 раз
Статус: √ проверено
Размер: 7.51 GB
Как cкачать? Как скачать Mystic Pieces через торрент | UTorrent

28-11-2019 20:33  


Отключить вcю реклaмy на сайте, в т.ч. и в плеере онлайн просмотра!

    Дорогой пользователь! Огромная просьба, поблагодарите релизера, оцените раздачу и оставьте свои комментарий, если Вы скачали Mystic Pieces через торрент бесплатно!!
    Комментировать посты могут только пользователи прошедшие не сложную регистрацию
    Показать сообщения:    


    Mystic Pieces через торрент
    Скачать бесплатно Mystic Pieces
    Mystic Pieces скачать торрент
    Mystic Pieces смотреть онлайн
    Cкачать фильм Mystic Pieces бесплатно
    Mystic Pieces скачать торрент в хорошем качестве
    Mystic Pieces смотреть онлайн бесплатно в хорошем качестве
    Вы не можете начинать темы
    Вы не можете отвечать на сообщения
    Вы не можете редактировать свои сообщения
    Вы не можете удалять свои сообщения
    Вы не можете голосовать в опросах
    Вы не можете прикреплять файлы к сообщениям
    Вы можете скачивать файлы
    Mystic Pieces / Загадочные Девочки [1989 г., Feature, Straight, Couples, All Sex, DVD9] смотреть онлайн, скачать торрент picoco.icu