Достать ножи: Стеклянная луковица

MVO

Добыча

Дубляж

Уэнсдэй

1 сезон

Тор

Дубляж

13 клиническая

1 сезон

Жестокая ночь

MVO

Одни из нас

1 сезон

Deluxe

pack

Рекомендуем

30

Пиратка

ВАЖНО

ВАЖНО

Ghostwire

Пиратка

jed

RePack

nioh2

RePack

RDR2

RePack

NEED FOR SPEED™ PAYBACK

RePack

скачать торрент

Кинопоиск HD

Острые козырьки 6 сезон

6 сезон

FAR CRY 6

RePack

скачать торрент

Лицензия

скачать торрент

MVO

1

1 сезон

скачать торрент

1 сезон

скачать торрент

Лицензия

  

Проклятие. Мертвая земля (Степан Бурнашев) [2021, Драма, WEB-DL 1080p] [OККО]

Проклятие. Мертвая земля через торрент by4n.vidak.icu

Раздают: 6 [ 5 KB/s ]
Размер: 3.21 GB | Добавлен: 6 д. назад | Торрент скачан:41 раз
Смотреть онлайн | Скачать | Поддержите нас   

24-01-2023 18:05 Проклятие. Мертвая земля Скачать торрент  

Проклятие. Мертвая земля
Год выпуска: 2021
Страна: Россия
Выпущено: Saidam Baryl
Жанр: Драма
Продолжительность: 01:25:25
Перевод: Не требуется | OККО
Субтитры: Русские (Full)

Режиссер: Степан Бурнашев

rating

В ролях: Виолетта Христофорова, Афанасий Карамзин, Надежда Ушницкая, Петр Баснаев

Описание: 23-летняя студентка Алёна возвращается из Москвы в Якутск по звонку маминой подруги Светланы, которая говорит, что вот уже три дня как пропала её мама Анна. Девушка обращается в полицию, и ей показывают распечатку, где написана последняя дата, когда Анна звонила в междугороднее такси. Полицейский добавляет, что по словам таксиста он увез описываемую женщину в деревню под названием Сымыр. Алёна тут же решает поехать в Сымыр и просит отчима отвезти её.

Качество: WEB-DL 1080p
Формат: MKV

Видео: MPEG-4 AVC, 5000 Kb/s, 1920x804 (2.40:1), 24 fps
Аудио: 48 kHz, AC3 Dolby Digital, 3/2 (L, C, R, l, r) + LFE ch, ~384 Kbps
скриншот  скриншот  скриншот  скриншот  

Complete name: Proklyatie.Mertvaya.zemlya.2021.WEB-DL.1080p.ELEKTRI4KA.UNIONGANG.mkv
Format: Matroska
Format version: Version 4
File size: 3.21 GiB
Duration: 1 h 25 min
Overall bit rate: 5 376 kb/s
Movie name: Proklyatie.Mertvaya.zemlya.2021.WEB-DL.1080p.ELEKTRI4KA.UNIONGANG.
Encoded date: UTC 2023-01-23 10:47:39
Writing application: mkvmerge v8.3.0 ('Over the Horizon') 64bit
Writing library: libebml v1.3.1 + libmatroska v1.4.2

Video
ID: 1
Format: AVC
Format/Info: Advanced Video Codec
Format profile: [email protected]
Format settings: CABAC / 3 Ref Frames
Format settings, CABAC: Yes
Format settings, Reference frames: 3 frames
Codec ID: V_MPEG4/ISO/AVC
Duration: 1 h 25 min
Bit rate: 5 000 kb/s
Width: 1 920 pixels
Height: 804 pixels
Display aspect ratio: 2.40:1
Frame rate mode: Constant
Frame rate: 24.000 FPS
Color space: YUV
Chroma subsampling: 4:2:0
Bit depth: 8 bits
Scan type: Progressive
Bits/(Pixel*Frame): 0.135
Stream size: 2.98 GiB (93%)
Writing library: x264 core 161 r3048 b86ae3c
Encoding settings: cabac=1 / ref=4 / deblock=1:1:1 / analyse=0x3:0x133 / me=umh / subme=9 / psy=1 / psy_rd=0.40:1.00 / mixed_ref=1 / me_range=24 / chroma_me=1 / trellis=0 / 8x8dct=1 / cqm=0 / deadzone=21, 11 / fast_pskip=1 / chroma_qp_offset=-2 / threads=25 / lookahead_threads=2 / sliced_threads=0 / nr=0 / decimate=1 / interlaced=0 / bluray_compat=0 / constrained_intra=0 / bframes=8 / b_pyramid=1 / b_adapt=1 / b_bias=0 / direct=3 / weightb=1 / open_gop=0 / weightp=2 / keyint=72 / keyint_min=37 / scenecut=0 / intra_refresh=0 / rc_lookahead=30 / rc=2pass / mbtree=1 / bitrate=5000 / ratetol=1.0 / qcomp=0.80 / qpmin=1 / qpmax=69 / qpstep=4 / cplxblur=20.0 / qblur=0.5 / vbv_maxrate=7500 / vbv_bufsize=10000 / nal_hrd=none / filler=0 / ip_ratio=1.40 / aq=1:1.00
Default: Yes
Forced: No

Audio
ID: 2
Format: AC-3
Format/Info: Audio Coding 3
Commercial name: Dolby Digital
Codec ID: A_AC3
Duration: 1 h 25 min
Bit rate mode: Constant
Bit rate: 384 kb/s
Channel(s): 6 channels
Channel layout: L R C LFE Ls Rs
Sampling rate: 48.0 kHz
Frame rate: 31.250 FPS (1536 SPF)
Compression mode: Lossy
Stream size: 235 MiB (7%)
Title: Original (OKKO)
Language: Russian
Service kind: Complete Main
Default: Yes
Forced: Yes

Text
ID: 3
Format: UTF-8
Codec ID: S_TEXT/UTF8
Codec ID/Info: UTF-8 Plain Text
Duration: 1 h 20 min
Bit rate: 45 b/s
Frame rate: 0.110 FPS
Count of elements: 533
Stream size: 26.9 KiB (0%)
Title: Full
Language: Russian
Default: No
Forced: No




Скачать Проклятие. Мертвая земля через торрент https://i121.fastpic.org/big/2023/0123/bd/6ecf5a4093c4ca56ec219471bb2db5bd.png Скачать, смотреть онлайн Проклятие. Мертвая земля бесплантно в хорошем качестве Описание: 23-летняя студентка Алёна возвращается из Москвы в Якутск по звонку маминой подруги Светланы, которая говорит, что вот уже три ... 8.2 10 5
Торрент: Зарегистрирован [2023-01-24 18:05] · скачан: 41 раз
Статус: √ проверено
Размер: 3.21 GB
Как cкачать? Как скачать Проклятие. Мертвая земля через торрент | UTorrent

% Раздел Тема Автор DL S | L
Наши новые фильмы 2020 - 2023 [ 1.46 GB ] Проклятие. Мертвая земля | | DLRip bober100 Скачать
3 | 0

28-11-2019 20:33  


Отключить вcю реклaмy на сайте, в т.ч. и в плеере онлайн просмотра!

    Дорогой пользователь! Огромная просьба, поблагодарите релизера, оцените раздачу и оставьте свои комментарий, если Вы скачали Проклятие. Мертвая земля через торрент бесплатно!!
    Комментировать посты могут только пользователи прошедшие не сложную регистрацию
    Показать сообщения:    


    Проклятие. Мертвая земля через торрент
    Скачать бесплатно Проклятие. Мертвая земля
    Проклятие. Мертвая земля скачать торрент
    Проклятие. Мертвая земля смотреть онлайн
    Cкачать фильм Проклятие. Мертвая земля бесплатно
    Проклятие. Мертвая земля скачать торрент в хорошем качестве
    Проклятие. Мертвая земля смотреть онлайн бесплатно в хорошем качестве
    Вы не можете начинать темы
    Вы не можете отвечать на сообщения
    Вы не можете редактировать свои сообщения
    Вы не можете удалять свои сообщения
    Вы не можете голосовать в опросах
    Вы не можете прикреплять файлы к сообщениям
    Вы можете скачивать файлы
    Проклятие. Мертвая земля [2021, Драма, WEB-DL 1080p] [OККО] смотреть онлайн, скачать торрент picoco.icu